周日午后 One.Sunday.Afternoon.(1933).FS.DVDRip

周日午后  One.Sunday.Afternoon.(1933).FS.DVDRip
  • 片  名  周日午后 One.Sunday.Afternoon.(1933).FS.DVDRip
  • 简  介  无
  • 类  别  电影
  • 小  类  欧美


  • 详细介绍

    转载请注明

    ◎译  名 周日午后
    ◎片  名 One Sunday Afternoon
    ◎年  代 1933
    ◎国  家 美国
    ◎类  别 喜剧/爱情
    ◎语  言 英语
    ◎字  幕 N/A
    ◎IMDB评分 6.9/10 (166 votes)
    ◎IMDB链接 http://www.imdb.com/title/tt0024414/
    ◎文件格式 X264 + AC3
    ◎视频尺寸 640 x 480
    ◎文件大小 1CD 50 x 15MB
    ◎片  长 68 mins
    ◎导  演 斯蒂芬·罗伯茨 Stephen Roberts
    ◎主  演 
    加里·库柏 Gary Cooper ....Dr. Lucius Griffith &39; Grimes
    菲伊·雷 Fay Wray ....Virginia &39; Brush Barnstead
    Frances Fuller ....Amy Lind Grimes
    Roscoe Karns ....Snappy Downer
    Neil Hamilton ....Hugo Barnstead, Owner Phoenix Carriage Factory
    简·达威尔 Jane Darwell ....Mrs. Lind, Amy&39;s Mother (scenes deleted)
    James Bradbury Jr. ....Dink&39;Reilly, Phoenix Foreman (uncredited)
    Jack Clifford ....Mr. Johnson, Watchman (uncredited)
    Robert Homans ....Officer Charlie Brown (uncredited)
    Carmencita Johnson ....Priscilla (uncredited)
    Gus Leonard ....Musician (uncredited)
    Jim Mason ....Dink&39;Escape from the Island') gebaut am Sep 5 2010 10:30:51
    Writing library : libebml v1.0.0 + libmatroska v1.0.0

    Video
    ID : 1
    Format : AVC
    Format/Info : Advanced Video Codec
    Format profile : High@L3.0
    Format settings, CABAC : Yes
    Format settings, ReFrames : 4 frames
    Format settings, GOP : M=4, N=9
    Codec ID : V_MPEG4/ISO/AVC
    Duration : 1h 8mn
    Bit rate : 1 225 Kbps
    Width : 640 pixels
    Height : 480 pixels
    Display aspect ratio : 4:3
    Frame rate : 23.976 fps
    Color space : YUV
    Chroma subsampling : 4:2:0
    Bit depth : 8 bits
    Scan type : Progressive
    Bits/(Pixel*Frame) : 0.166
    Stream size : 591 MiB (84%)
    Writing library : x264 core 107 r1745 4785e8e
    Encoding settings : cabac=1 / ref=3 / deblock=1:-1:-1 / analyse=0x3:0x113 / me=hex / subme=7 / psy=1 / psy_rd=1.00:0.15 / mixed_ref=1 / me_range=16 / chroma_me=1 / trellis=1 / 8x8dct=1 / cqm=0 / deadzone=21,11 / fast_pskip=1 / chroma_qp_offset=-3 / threads=3 / sliced_threads=0 / nr=0 / decimate=1 / interlaced=0 / constrained_intra=0 / bframes=3 / b_pyramid=2 / b_adapt=1 / b_bias=0 / direct=1 / weightb=1 / open_gop=0 / weightp=2 / keyint=250 / keyint_min=23 / scenecut=40 / intra_refresh=0 / rc_lookahead=40 / rc=2pass / mbtree=1 / bitrate=1225 / ratetol=1.0 / qcomp=0.60 / qpmin=10 / qpmax=51 / qpstep=4 / cplxblur=20.0 / qblur=0.5 / ip_ratio=1.40 / aq=1:1.00

    Audio
    ID : 2
    Format : AC-3
    Format/Info : Audio Coding 3
    Mode extension : CM (complete main)
    Codec ID : A_AC3
    Duration : 1h 8mn
    Bit rate mode : Constant
    Bit rate : 192 Kbps
    Channel(s) : 2 channels
    Channel positions : Front: L R
    Sampling rate : 48.0 KHz
    Bit depth : 16 bits
    Compression mode : Lossy
    Stream size : 94.6 MiB (14%)
    Language : English

    Menu
    00:00:00.000 : en:Chapter 1
    00:10:00.500 : en:Chapter 2
    00:20:00.000 : en:C
  • 周日午后  One.Sunday.Afternoon.(1933).FS.DVDRip_large