付娜 -《筝鼓》320K[MP3]

付娜 -《筝鼓》320K[MP3]
  • 片  名  付娜 -《筝鼓》320K[MP3]
  • 简  介  音乐类型: 民乐发行时间: 2009年04月26日
  • 类  别  音乐
  • 小  类  其它音乐


  • 详细介绍专辑中文名: 筝鼓艺术家: 付娜音乐类型: 民乐资源格式: MP3版本: 320K发行时间: 2009年04月26日地区: 大陆语言: 普通话简介: 发行:广州佰度唱片
    出版:中唱广州公司出版
    编号:CD-0150
    专辑介绍:
    全部真空器录音,紫水晶CD,192Khz 24Bit完美录音,14首酣畅淋漓乐器佳作,发烧友典藏之选,大动态音质一流,自然混响,频带极宽,声音厚而清晰
  • 付娜 -《筝鼓》320K[MP3]_large

精选评论

REM DISCID B5108A0E
REM COMMENT "ExactAudioCopy v0.95b3"
PERFORMER "付娜"
TITLE "筝鼓"
FILE "筝鼓.wav" WAVE
TRACK 01 AUDIO
TITLE "坐上火车去拉萨"
PERFORMER "付娜"
INDEX 01 00:00:00
TRACK 02 AUDIO
TITLE "天堂"
PERFORMER "付娜"
INDEX 00 05:30:00
INDEX 01 05:32:00
TRACK 03 AUDIO
TITLE "天路"
PERFORMER "付娜"
INDEX 00 11:20:38
INDEX 01 11:22:38
TRACK 04 AUDIO
TITLE "十送红军"
PERFORMER "付娜"
INDEX 00 16:41:38
INDEX 01 16:43:38
TRACK 05 AUDIO
TITLE "牧羊曲"
PERFORMER "付娜"
INDEX 00 23:03:01
INDEX 01 23:05:01
TRACK 06 AUDIO
TITLE "神奇的九寨"
PERFORMER "付娜"
INDEX 00 28:02:39
INDEX 01 28:04:39
TRACK 07 AUDIO
TITLE "康定情歌"
PERFORMER "付娜"
INDEX 00 33:42:40
INDEX 01 33:44:39
TRACK 08 AUDIO
TITLE "茉莉花"
PERFORMER "付娜"
INDEX 00 38:38:04
INDEX 01 38:40:02
TRACK 09 AUDIO
TITLE "天竺少女"
PERFORMER "付娜"
INDEX 00 42:52:41
INDEX 01 42:54:40
TRACK 10 AUDIO
TITLE "月光下的凤尾竹"
PERFORMER "付娜"
INDEX 00 47:13:40
INDEX 01 47:15:40
TRACK 11 AUDIO
TITLE "蝴蝶泉边"
PERFORMER "付娜"
INDEX 00 52:08:03
INDEX 01 52:10:03
TRACK 12 AUDIO
TITLE "山路十八弯"
PERFORMER "付娜"
INDEX 00 57:39:03
INDEX 01 57:41:03
TRACK 13 AUDIO
TITLE "映山红"
PERFORMER "付娜"
INDEX 00 61:47:03
INDEX 01 61:49:03
TRACK 14 AUDIO
TITLE "好日子"
PERFORMER "付娜"
INDEX 00 66:41:06
INDEX 01 66:43:03
EAC 抓取日志文件从1. 七月 2009, 21:24 用于 CD
未知艺术家 / 未知标题

使用驱动器 :PIONEER DVD-RW DVR-117 Adapter: 0 ID: 1
读取模式 :不使用 C2,使用精确流, 禁用缓存的安全模式
读取偏移校正:0
读取 Lead-In 和 Lead-Out : 否

所用输出模式:内部 WAV 函数
44.100 Hz;16 Bit;立体声

其他选项 :
用静音填充抓取中丢失偏移的采样 : 是
去除首尾静音块 : 否
Win NT 及 2000 本地 Win32 接口


范围状态及错误
已选择范围
文件名 F:未知艺术家 - 未知标题.wav

峰值电平 97.0 %
范围质量 100.0 %
CRC 73C14529
复制成功

没有错误发生

状态报告结尾
楼主能告诉我本资源是多少压缩码率吗?
谢谢

资源已更改为320K,但不知道如何在回复里面贴完档截图

以下是贴截图的教程,请参考。
【新手看看】如何快速贴图?
http://www.VeryCD.com/groups/VeryCD:music/565544.topic

完档截图除了说明发布人拥有完整资源外,还能展示压缩包中的具体文件,如图片、介绍等,及MP3是否全面等,避免把无关的资料打进包内,同时也可检查曲目是否有遗漏了。
难道又是天籁
先发布MP3试听,大家喜欢的话无损随后放出!
下来听听!
民乐为何演奏那么多流行音乐?媚俗?
专辑曲目:


01. 坐上火车去拉萨
02. 天堂
03. 天路
04. 十送红军
05. 牧羊曲
06. 神奇的九寨
07. 康定情歌
08. 茉莉花
09. 天竺少女
10. 月光下的凤尾竹
11. 蝴蝶泉边
12. 山路十八弯
13. 映山红
14. 好日子
好听,楼主快上无损的,谢谢了!
期待APE
看起来就很舒服了~

待源中……