徐雯 -《十亿掌声Ⅱ》[APE]

徐雯 -《十亿掌声Ⅱ》[APE]
  • 片  名  徐雯 -《十亿掌声Ⅱ》[APE]
  • 简  介  音乐风格: 流行发行时间: 2009年01月09日地区: 新加坡语言: 普通话
  • 类  别  音乐
  • 小  类  华语音乐


  • 详细介绍专辑中文名: 十亿掌声Ⅱ歌手: 徐雯音乐风格: 流行资源格式: APE发行时间: 2009年01月09日地区: 新加坡语言: 普通话简介: 唱片名称:十亿掌声Ⅱ
    唱片艺人:徐雯
    唱片公司:天圆唱片
    出版公司:中国长城艺术文化中心
    ISRC:CN-A09-08-705-00/A.J6
    发行时间:2009年1月9日
    资源格式:APE整轨
    专辑简介:
    继《十亿掌声》抢断香江后更强势推出采用HD AUDIO高采样技术重新录制邓丽君《月亮代表我的心》、《忘记他》、《千言万语》等国语、粤语最高经典歌曲。新加坡皇后级歌手徐雯再度倾情演唱,金碟奖最佳制作人何忠倾力打造
    以下自摘徐雯博客
    新专辑《十亿掌声Ⅱ》已于2009年1月5日在香港面世,并将于新春佳节来临之际在国内正式上市。专辑收录了邓丽君中文经典歌曲共十三首,其中包括十首国语歌曲和三首粤语歌曲。希望那一首首熟悉的旋律、似曾相识的歌声,能够唤起您美好的回忆。
    另外,我的第一张邓歌专辑《十亿掌声》在港穗两地唱片销量排行榜中都名列前茅,并且在2008年香港HiFi展及2008年广州音响唱片展中都取得了令人满意的成绩。再次感谢所有支持我的朋友们!
    应朋友所求,特发布这张CD,徐雯是我最喜欢的歌手之一,也许是太喜欢邓丽君的歌曲的缘故吧,她唱的十分相似,歌曲也很好听,在此强烈推荐给喜欢邓丽君的歌迷们!
    还有一位模仿邓丽君声音的歌手“杨曼莉”我也十分喜欢,她曾经是香港“邓丽君最佳韵味奖”获得者,唱功也很过硬,模仿的很不错,在这也向大家推荐下,如果喜欢以后我也会发布与大家共享!
    本人小水管做源,上传30-50KB左右,很辛苦,请下载完的朋友不要移动或改变文件文件位置,帮助分流下,在此表示感谢!!

  • 徐雯 -《十亿掌声Ⅱ》[APE]_large

精选评论

不知道镜像与ape之类有什么区别的?真感谢楼主发贴。
翻唱邓丽君中有个叫黄红英的俺也特别喜欢。不知道大家对黄红英有什么看法,欢迎交流。
黄红英不是以翻唱邓丽君而出名,她的唱功也很好,声音很有特点,也是个不错的歌手,值得一听,镜像文件说白了就是把CD光盘原封不动的复制下来放到电脑里,播放时需要用虚拟光驱把镜像插入,就和电脑的光驱放入光盘是一个道理,理论上要比APE格式的文件还要好!
楼主,偶爱死你啦,谢谢这么快就发了。

镜像声音更好!!!

黄红英的《0初次尝到寂寞》是她翻唱邓丽君的歌中最好的一首,其他的和徐比起来还是要差一些。尤其是在用邓式唱呛上唱新曲和徐更不能比。
由于镜像文件不能授精,特重新转换为APE格式,望谅解!
Exact Audio Copy V0.99 prebeta 4 from 23. January 2008

EAC 抓取日志文件从18. 五月 2009, 0:23

未知艺术家 / 未知标题

使用驱动器 :KS0396U PGF617U Adapter: 5 ID: 0

读取模式 : 保护
使用精确流 : 是
废除音频缓冲 : 是
使用 C2 指针 : 否

读取偏移校正 : 0
读取 Lead-In 和 Lead-Out : 否
用静音填充抓取中丢失偏移的采样 : 是
去除首尾静音块 : 否
在 CRC 计算中使用了空样本 : 否
已用接口 : Win NT 及 2000 本地 Win32 接口

所用输出格式 : 内部 WAV 函数
样本格式 : 44.100 Hz;16 Bit;立体声


被抓轨 CD 的 TOC

音轨 | 开始 | 长度 | 起始扇区 | 结尾扇区
--------------------------------------------------
1 | 0:00.00 | 3:43.01 | 0 | 16725
2 | 3:43.01 | 4:26.06 | 16726 | 36681
3 | 8:09.07 | 4:05.01 | 36682 | 55057
4 | 12:14.08 | 4:29.46 | 55058 | 75278
5 | 16:43.54 | 3:58.02 | 75279 | 93130
6 | 20:41.56 | 3:39.28 | 93131 | 109583
7 | 24:21.09 | 2:49.32 | 109584 | 122290
8 | 27:10.41 | 4:09.43 | 122291 | 141008
9 | 31:20.09 | 3:21.21 | 141009 | 156104
10 | 34:41.30 | 4:48.59 | 156105 | 177763
11 | 39:30.14 | 4:35.17 | 177764 | 198405
12 | 44:05.31 | 4:23.72 | 198406 | 218202
13 | 48:29.28 | 2:45.49 | 218203 | 230626


范围状态及错误

已选择范围

文件名 L:上传资源未知艺术家 - 未知标题.wav

峰值电平 97.7 %
范围质量 100.0 %
复制 CRC A32CDA73
复制成功

没有错误发生

状态报告结尾
REM GENRE Pop
REM DATE 2009
REM DISCID A10C030D
REM COMMENT <雷武龙>收藏
PERFORMER "徐雯"
TITLE "十亿掌声Ⅱ"
FILE "徐雯.-.[十亿掌声Ⅱ].专辑.(ape).ape" WAVE
TRACK 01 AUDIO
TITLE "千言万语"
FLAGS DCP
INDEX 01 00:00:00
TRACK 02 AUDIO
TITLE "恰似你的温柔"
FLAGS DCP
INDEX 01 03:43:01
TRACK 03 AUDIO
TITLE "结识你那一天"
FLAGS DCP
INDEX 01 08:09:07
TRACK 04 AUDIO
TITLE "初次尝到寂寞"
FLAGS DCP
INDEX 01 12:14:08
TRACK 05 AUDIO
TITLE "小村之恋"
FLAGS DCP
INDEX 01 16:43:54
TRACK 06 AUDIO
TITLE "君心我心"
FLAGS DCP
INDEX 01 20:41:56
TRACK 07 AUDIO
TITLE "雪中情"
FLAGS DCP
INDEX 01 24:21:09
TRACK 08 AUDIO
TITLE "月亮代表我的心"
FLAGS DCP
INDEX 01 27:10:41
TRACK 09 AUDIO
TITLE "又见炊烟"
FLAGS DCP
INDEX 01 31:20:09
TRACK 10 AUDIO
TITLE "在水一方"
FLAGS DCP
INDEX 01 34:41:30
TRACK 11 AUDIO
TITLE "襟裳岬"
FLAGS DCP
INDEX 01 39:30:14
TRACK 12 AUDIO
TITLE "情人的关怀"
FLAGS DCP
INDEX 01 44:05:31
TRACK 13 AUDIO
TITLE "忘记他"
FLAGS DCP
INDEX 01 48:29:28
能做成dsd的吗?
楼主请发一下镜像文件嘛,那才是真正的无损!
顶一下


最近对翻唱歌手没好感


太多翻唱了, 陈洁丽, 童丽, 伽非伽尔


听起来都差不多
楼主,这个不是新加坡出版的吧?



楼上的,不用仔细听,也听的出这几个人区别是很大的啊。
好东西啊,顶起!!



---------------我是指她们的风格都差不多, 当然音质是有点差别,
不会吧,下载了整晚都没下完,而且最后几mb没源了。