东方神起(Tohoshinki) -《Sky》单曲[APE]

东方神起(Tohoshinki) -《Sky》单曲[APE]
  • 片  名  东方神起(Tohoshinki) -《Sky》单曲[APE]
  • 简  介  Douban1417513:8.7(1924 votes)音乐风格: 流行发行时间: 2006年08月02日地区: 日本语言: 日语
  • 类  别  音乐
  • 小  类  日韩音乐


  • 详细介绍简介: 专辑介绍:
    人气急升的韩国组合东方神起将于8月2日在日本发行最新日文单曲《Sky》,专辑风格为POP曲风。韩国组合目前都大力发展日本市场积极发行日语专辑。
    东方神起话题延烧中!2006年继目前仍持续热卖中的首张专辑「Heart, Mind and Soul 心灵神会」,以及6th单曲「Bigin」后,趁势推出彷彿令人能感受到大海、蓝天以及微热的夏风般,由东方神起的完美合声所带来的全新日文单曲!收录目前在日本强力播出中的 31冰淇淋 电视广告曲「Sky」。CD初回限定版特别加收因为还有明天(2 Future club mix)」以及12页日文歌词。同时推出CD+DVD以及CD ONLY版本。
    PS:下载完成后请各位亲自行检测音质,如有问题的话M我。
    有意的亲请加仙后群:23845795(超级群哦!),还有各位亲高速供源时间为周一至周五。

  • 东方神起(Tohoshinki) -《Sky》单曲[APE]_large

精选评论

Exact Audio Copy V0.99 prebeta 5 from 4. May 2009

EAC 抓取日志文件从5. 四月 2010, 19:04

未知艺术家 / 未知标题

使用驱动器 :Optiarc DVD RW AD-7700S Adapter: 0 ID: 1

读取模式 : 暴发

读取偏移校正 : 0
读取 Lead-In 和 Lead-Out : 否
用静音填充抓取中丢失偏移的采样 : 是
去除首尾静音块 : 否
在 CRC 计算中使用了空样本 : 否
已用接口 : Win NT 及 2000 本地 Win32 接口

所用输出格式 : 内部 WAV 函数
样本格式 : 44.100 Hz;16 Bit;立体声


被抓轨 CD 的 TOC

音轨 | 开始 | 长度 | 起始扇区 | 结尾扇区
--------------------------------------------------
1 | 0:00.00 | 5:33.52 | 0 | 25026
2 | 5:33.52 | 3:52.15 | 25027 | 42441
3 | 9:25.67 | 5:46.08 | 42442 | 68399
4 | 15:12.00 | 5:33.35 | 68400 | 93409
5 | 20:45.35 | 3:48.35 | 93410 | 110544
6 | 27:05.70 | 46:52.05 | 121945 | 332849


范围状态及错误

已选择范围

文件名 E:TVXQSky.wav

峰值电平 99.7 %
复制 CRC 84D0F8F0
复制成功

没有错误发生

状态报告结尾
PERFORMER "东方神起"
TITLE "Sky"
REM DISCID 4B115606
REM COMMENT "ExactAudioCopy v0.99pb5"
FILE "Sky.wav" WAVE
TRACK 01 AUDIO
TITLE "1.Sky"
PERFORMER "东方神起"
REM GENRE J/Dance Pop
REM DATE 2006
INDEX 01 00:00:00
TRACK 02 AUDIO
TITLE "2.NO PAIN NO GAIN"
PERFORMER "东方神起"
REM GENRE J/Dance Pop
REM DATE 2006
INDEX 00 05:31:35
INDEX 01 05:33:52
TRACK 03 AUDIO
TITLE "3.明日は来るから(2 Future Club Mix)"
PERFORMER "东方神起"
REM GENRE J/Dance Pop
REM DATE 2006
INDEX 00 09:21:47
INDEX 01 09:25:67
TRACK 04 AUDIO
TITLE "4.Sky(Less Vocal)"
PERFORMER "东方神起"
REM GENRE J/Dance Pop
REM DATE 2006
INDEX 00 15:08:57
INDEX 01 15:12:00
TRACK 05 AUDIO
TITLE "5.NO PAIN NO GAIN(Less Vocal)"
PERFORMER "东方神起"
REM GENRE J/Dance Pop
REM DATE 2006
INDEX 00 20:43:17
INDEX 01 20:45:35