《EXIT TRANCE PRESENTS SPEED Anime Trance Complete Best》[Vol. 2][Limited Edition][TAK]

《EXIT TRANCE PRESENTS SPEED Anime Trance Complete Best》[Vol. 2][Limited Edition][TAK]
  • 片  名  《EXIT TRANCE PRESENTS SPEED Anime Trance Complete Best》[Vol. 2][Limited Edition][TAK]
  • 简  介  发行时间: 2010年01月20日对白语言: 日语文字语言: 日文
  • 类  别  动漫
  • 小  类  动漫周边


  • 详细介绍简介: 【内容介绍】
    「SPEED アニメトランス BEST」シリーズの集大成として、过去にリリースした6~8、エクスタシー、THE
    MOVIEの中から特に人気の高かった30曲を一枚に凝缩! また、収録曲のボーカル再録バージョンや、リミック
    ス违いなどの别バージョンやシリーズ初収録音楽も収録予定。ジャケットイラストはみさくらなんこつ。限
    定版は、ぷちコレ! デュエルメイド×アニメトランス コラボレーションフィギュア同梱。封入のアンケート
    ハガキを返送の方全员にアンケート人気上位10曲のTOP10カラオケCDプレゼント!
    简单的说,这是收集2009年和之前的热门动画歌曲,经由DJ混音成连续舞曲,相当的不错!VC首发,并且长期供源!
    【专辑介绍】
    CD (2010/1/20)
    ディスク枚数: 1
    フォーマット: Limited Edition
    レーベル: エグジットチューンズ
    収録时间: 78 分
    ASIN: B002TTI386
    商品番号: QWCE-143
    【艺术家】
    MK feat.Ma15 (アーティスト)
    Icon feat.R.Cena (アーティスト)
    Dizzi Mystica feat.mamiko (アーティスト)
    MK feat.Latte+CAMRY (アーティスト)
    MK feat.CAMRY+MAKI (アーティスト)
    MK feat.MAKI+Ma15 (アーティスト)
    Ryu*feat.MAKI+Ma15+CAMRY (アーティスト)
    Dizzi Mystica feat.Latte (アーティスト)
    B.U.S feat.MAKI+R.Cena (アーティスト)
    Judas feat.MAKI (アーティスト)
    Cubby-S feat.MAKI+Ma15 (アーティスト)
    DJ Sa9 vs.Hommarju feat.YURiE (アーティスト)
    Starving Trancer vs.Hommarju feat.MAKI+Ma15 (アーティスト)
    B.U.S feat.YURiE (アーティスト)
    Starving Trancer feat.R.Cena (アーティスト)
    Starving Trancer feat.puchi (アーティスト)
    Helvetia feat.CAMRY (アーティスト)
    Helvetia feat.Latte (アーティスト)
    Hommarju feat.MAKI (アーティスト)
    MAKI+Ma15 (アーティスト)
    DJ UTO vs.Starving Trancer feat.森永真由美 (アーティスト)
    Hommarju feat.NON (アーティスト)
    DJ Sa9 feat.MAKI (アーティスト)
    Ryu*feat.YURiE (アーティスト)
    DJ Sa9 feat.CAMRY (アーティスト)
    DJ Sa9 feat.KANA (アーティスト)
    Hommarju feat.mamiko (アーティスト)
    【收录曲目】
    1. ハレ晴レユカイ (凉宫ハルヒの忧鬱より) (シリーズ初収録バージョン)
    2. Cagayake!GIRLS (オープニング/けいおん!)
    3. Super Noisy Nova (オープニング/宙のまにまに) (シリーズ初収録バージョン)
    4. God knows… (凉宫ハルヒの忧鬱より) (シリーズ初収録バージョン)
    5. もってけ!セーラーふく (らき☆すたより(TVアニメ)) (シリーズ初収録バージョン)
    6. motto☆派手にね! (オープニング/かんなぎ)
    7. Glossy:MMM (主题歌/咲-Saki-)
    8. プレパレード (オープニング/とらドラ!)
    9. ふわふわ时间 (けいおん!より)
    10. 経験値速上々↑↑ (オープニング/みなみけおかえり)
    11. 本日、満开ワタシ色! (オープニング/ハヤテのごとく!)
    12. LOVE POWER (オープニング/乙女はお姉さまに恋してる)
    13. futuristic imaginataion (エンディング/东のエデン(フジテレビ系))
    14. inner universe (攻殻机动队STAND ALONE COMPLEXより)
    15. Don’t say”lazy” (エンディング/けいおん!)
    16. 焔の扉 (挿入歌/机动戦士ガンダムSEED DESTINY)
    17. 儚くも永久のカナシ (オープニング/机动戦士ガンダム00)
    18. ?でわっしょい
    19. 片翼の鸟
    20. HANAJI (オープニング/まりあほりっく)
    21. What ’bout my star? (マクロスFrontierより)
    22. oblivious (テーマ/剧场版空の境界)
    23. プリズム (电脳コイルより)
    24. THANATOS-
  • 《EXIT TRANCE PRESENTS SPEED Anime Trance Complete Best》[Vol. 2][Limited Edition][TAK]_large

精选评论

Exact Audio Copy V0.99 prebeta 5 from 4. May 2009

EAC extraction logfile from 30. January 2010, 15:01

Unknown Artist / Unknown Title

Used drive : ASUS DRW-24B1ST Adapter: 1 ID: 0

Read mode : Secure
Utilize accurate stream : Yes
Defeat audio cache : No
Make use of C2 pointers : No

Combined read/write offset correction : 0
Overread into Lead-In and Lead-Out : No
Fill up missing offset samples with silence : Yes
Delete leading and trailing silent blocks : No
Null samples used in CRC calculations : Yes
Used interface : Native Win32 interface for Win NT & 2000

Used output format : Internal WAV Routines
Sample format : 44.100 Hz; 16 Bit; Stereo


TOC of the extracted CD

Track | Start | Length | Start sector | End sector
---------------------------------------------------------
1 | 0:00.00 | 4:08.32 | 0 | 18631
2 | 4:08.32 | 4:17.62 | 18632 | 37968
3 | 8:26.19 | 4:08.00 | 37969 | 56568
4 | 12:34.19 | 3:44.02 | 56569 | 73370
5 | 16:18.21 | 3:43.74 | 73371 | 90169
6 | 20:02.20 | 1:33.27 | 90170 | 97171
7 | 21:35.47 | 1:42.50 | 97172 | 104871
8 | 23:18.22 | 1:23.71 | 104872 | 111167
9 | 24:42.18 | 1:45.14 | 111168 | 119056
10 | 26:27.32 | 2:34.61 | 119057 | 130667
11 | 29:02.18 | 1:21.74 | 130668 | 136816
12 | 30:24.17 | 1:44.02 | 136817 | 144618
13 | 32:08.19 | 1:51.22 | 144619 | 152965
14 | 33:59.41 | 1:46.48 | 152966 | 160963
15 | 35:46.14 | 4:00.47 | 160964 | 179010
16 | 39:46.61 | 1:21.42 | 179011 | 185127
17 | 41:08.28 | 4:24.02 | 185128 | 204929
18 | 45:32.30 | 1:24.70 | 204930 | 211299
19 | 46:57.25 | 1:44.26 | 211300 | 219125
20 | 48:41.51 | 1:41.69 | 219126 | 226769
21 | 50:23.45 | 4:13.33 | 226770 | 245777
22 | 54:37.03 | 1:59.68 | 245778 | 254770
23 | 56:36.71 | 1:10.04 | 254771 | 260024
24 | 57:47.00 | 4:53.26 | 260025 | 282025
25 | 62:40.26 | 1:54.73 | 282026 | 290648
26 | 64:35.24 | 1:45.01 | 290649 | 298524
27 | 66:20.25 | 2:51.52 | 298525 | 311401
28 | 69:12.02 | 1:36.47 | 311402 | 318648
29 | 70:48.49 | 3:51.25 | 318649 | 335998
30 | 74:39.74 | 3:32.42 | 335999 | 351940


Range status and errors

Selected range

Filename C:UsersAdministratorDesktopQWCE-00143.wav
Peak level 98.2 %
Range quality 100.0 %
Copy CRC 9410929B
Copy OK

No errors occurred

End of status report
我是沖著封面來的!謝謝樓主發佈的好物!!
有BK吗???
好极了,第2弹等很久了
封面 = =
叔叔是个老实人,不会说谎话,我真的不是来看封面的,手一抖就进来了,失误失误,啊,失误失误。。。
看起来不错~!~

BK有内附
看到许多熟悉的名字
真不知道混音后会有什么效果
随便看了一下歌曲目录:凉宫,k-on,神薙,saki,东之伊甸,旋风管家?,海猫鸣泣之时,化物语,白色相簿?,高达,EVA,汗颜 = =,纠结中.....
居然......lucky star的那个电波歌曲(拿去吧!水手服)都有。。。。
看了评论才看到封面,xe啊
哈哈,这个肯定要下的