Dorlis -《Swingin' Street3》专辑[APE]

Dorlis -《Swingin' Street3》专辑[APE]
  • 片  名  Dorlis -《Swingin' Street3》专辑[APE]
  • 简  介  音乐风格: 流行发行时间: 2007年06月06日地区: 日本语言: 日语
  • 类  别  音乐
  • 小  类  日韩音乐


  • 详细介绍专辑中文名: Swingin' Street3歌手: Dorlis音乐风格: 流行资源格式: APE版本: 专辑发行时间: 2007年06月06日地区: 日本语言: 日语简介: 专辑介绍:
    dorlis在地下厂牌优异的表现,以及知名制作人松原宪强力背书保证下,立刻吸引了主流唱片公司的注意,2005年在11家唱片公司的浴血争夺战后,与现在的唱片公司(JVC)签约,以单曲《蝴蝶》正式踏入乐坛并受到瞩目,第二首单曲《肌肤之间》立刻被TBS电视台由饭岛直子主演的日剧《污秽的唇舌》选为主题曲,dorlis在主流唱片公司的首张专辑《Swingin' Street 2》,由一路提拔他出道的松原宪一手打造,融合了复古怀旧的昭和时代歌谣、爵士乐以及Group Sound等曲风,透过空心吉他为主的伴奏,巧妙地营造出属于大人的和风Bossa Nova音乐世界。这张专辑的封面,依然是由自dorlis出道以来,就一直为她操刀封面插画以及人物造型的知名插画家Yuka Maeda负责打造。
    歌手简介:
    日本冈山市出身的dorlis出生于1982年2月23日,今年24岁。自幼学习古典吉他。17岁开始在街头演唱。之后,从高中中辍,开始搭便车环游全日本,并不断在各地作街头演出。曾经为Misia、BoA与平井坚等巨星监制的松原宪,听过dorlis的街头演唱后深受她充满生命力的歌声所感动,深信她必定是能够在下一个世代能发光发亮的艺人。
  • Dorlis -《Swingin' Street3》专辑[APE]_large

精选评论

封面~
啊...我是MP3派...
封面党路过
封面不错~~谢谢楼主的分享·!
大爱的歌手~~~谢谢LZ分享~~!!!
这个貌似是有爵士风格
真郁闷,本来有好的东西想同大家分享
但无奈级别太低
听听看,感谢分享
嗯不错 以前听过
啊~~~好喜欢dorlis啊~~偶然听过一首她的歌后..就被她的风格和声音吸引了~~
楼大...如果可以的话..能压MP3格式的么~?无奈硬盘太小啊!!!!!
PERFORMER "dorlis"
TITLE "Swingin' Street 3"
REM GENRE Swing
REM DATE 2007
REM DISCID D6102210
REM COMMENT "ExactAudioCopy v0.99pb5"
FILE "dorlis - Swingin' Street 3.ape" WAVE
TRACK 01 AUDIO
TITLE "ワクワクぬけがけ大作戦~Album Ver.~"
PERFORMER "dorlis"
INDEX 01 00:00:00
TRACK 02 AUDIO
TITLE "ラブ◎○△▲ダービー"
PERFORMER "dorlis"
INDEX 01 04:20:37
TRACK 03 AUDIO
TITLE "HAPPY RAINBOW"
PERFORMER "dorlis"
INDEX 01 08:17:42
TRACK 04 AUDIO
TITLE " メンズキラー☆シスターズ"
PERFORMER "dorlis"
INDEX 01 13:05:68
TRACK 05 AUDIO
TITLE "かさぶた"
PERFORMER "dorlis"
INDEX 01 17:25:20
TRACK 06 AUDIO
TITLE "市民プールとスケートリンク"
PERFORMER "dorlis"
INDEX 01 20:59:20
TRACK 07 AUDIO
TITLE "太陽のスキャット"
PERFORMER "dorlis"
INDEX 01 25:22:57
TRACK 08 AUDIO
TITLE "ふたつの目ではたりないくらい"
PERFORMER "dorlis"
INDEX 01 29:01:15
TRACK 09 AUDIO
TITLE "季節を知らない子供たち"
PERFORMER "dorlis"
INDEX 01 33:35:23
TRACK 10 AUDIO
TITLE "奇跡のトゥインクルパレード"
PERFORMER "dorlis"
INDEX 01 38:48:12
TRACK 11 AUDIO
TITLE "幸せのおすそわけ~信じることは素敵なことよ~"
PERFORMER "dorlis"
INDEX 01 42:22:67
TRACK 12 AUDIO
TITLE "パッションロックのあいつ"
PERFORMER "dorlis"
INDEX 01 47:05:01
TRACK 13 AUDIO
TITLE "ラブ◎○△▲ダービー~Yasutaka Nakata Remix~"
PERFORMER "dorlis"
INDEX 01 50:29:50
TRACK 14 AUDIO
TITLE "メンズキラー☆シスターズ~Takeshi Nakatsuka Remix~"
PERFORMER "dorlis"
INDEX 01 54:48:31
TRACK 15 AUDIO
TITLE "ワクワク■ぬけがけ大作戦~Jazztronik Remix~"
PERFORMER "dorlis"
INDEX 01 59:19:41
TRACK 16 AUDIO
TITLE "消しゴムのおまじない "
PERFORMER "dorlis"
INDEX 01 64:13:39