《tieLeaf同人音乐》[月追いの都市][TTA]

《tieLeaf同人音乐》[月追いの都市][TTA]
  • 片  名  《tieLeaf同人音乐》[月追いの都市][TTA]
  • 简  介  发行时间: 2005年对白语言: 日语
  • 类  别  动漫
  • 小  类  动漫周边


  • 详细介绍中文名: tieLeaf同人音乐别名: tieLeaf同人音乐版本: [月追いの都市][TTA]发行时间: 2005年地区: 日本对白语言: 日语简介:
    【专辑介绍:】
    月追いの都市
    tieLeaf (霜月はるか・日山尚・空乃苍)
    MLCD-0006
    ボーカル・コーラス 霜月はるか
    コーラス
     片雾烈火 (CLOSED/UNDERGROUND)
     斎藤纪子
     みずさわゆうき (PROMENADE)
     みとせのりこ
    由于这张碟只有它的官方网站上有介绍,我又是日文白,因此具体的大家只好参见tieLeaf官方网站。我看不懂日文,不知道它的介绍在网站的哪里,所以。。。对于这张碟我也不甚清楚,也不好把具体的介绍贴上来。。。
    但是这并不影响到专辑的质量。片雾烈火是日本三位最优秀的同人歌姬之一,她的声音还是很好的。我不太清楚它的背景,我只能在这张碟中感觉到一种空灵,这也是C69倍受好评的专辑之一。如果大家比较喜欢管野大神的音乐,也应该会喜欢这张碟,对管大神不感冒的,这张音乐的旋律也很优美,值得细细欣赏。再加上霜月的编曲,也算是有了金牌的保证了。
    嗯,还有就是我不懂日文,所以中文名称也只好用原有的名称了。希望哪位会日文的达人帮帮忙,回帖或者PM告诉我它的中文名称,在此拜谢了。
    【专辑曲目】
    01.捻子巻く月
    02.月追いの都市 (作词:日山尚 作・编曲:霜月はるか)
    03.创世と终焉 (作词:日山尚 作曲:霜月はるか 编曲:霜月はるか・たくまる)
    04.光との邂逅 (作词:日山尚 作・编曲:MANYO)
    05.瞳を継ぐ者 (作词:日山尚 作曲:霜月はるか 编曲:细井聡司)
    06.圣鐘 (作词:日山尚 作・编曲:myu)
    07.远い少女へ (作词:日山尚 作・编曲:たくまる)
    08.花ひらく苍天 (作词:日山尚 作曲:霜月はるか 编曲:たくまる)
    09.白き想歌 (作词:日山尚 作・编曲:细井聡司)
    10.捻子巻く时计が月の満ち欠けを刻む (作词:日山尚 作曲:霜月はるか 编曲:MANYO)
    11.闭じられた世界
  • 《tieLeaf同人音乐》[月追いの都市][TTA]_large

精选评论

没源了,多好的音乐,拜托加一下源吧
没源了啊。。。网上再也找不到资源了。。
cue:
PERFORMER "tieLeaf"
TITLE "月追いの都市"
FILE "MLCD-0006.tta" WAVE
TRACK 01 AUDIO
TITLE "捻子巻く月"
PERFORMER "tieLeaf"
FLAGS DCP
INDEX 01 00:00:00
TRACK 02 AUDIO
TITLE "月追いの都市"
PERFORMER "tieLeaf"
FLAGS DCP
INDEX 01 01:12:66
TRACK 03 AUDIO
TITLE "创世と终焉"
PERFORMER "tieLeaf"
FLAGS DCP
INDEX 01 05:24:22
TRACK 04 AUDIO
TITLE "光との邂逅"
PERFORMER "tieLeaf"
FLAGS DCP
INDEX 01 07:40:55
TRACK 05 AUDIO
TITLE "瞳を継ぐ者"
PERFORMER "tieLeaf"
FLAGS DCP
INDEX 01 12:17:04
TRACK 06 AUDIO
TITLE "圣鐘"
PERFORMER "tieLeaf"
FLAGS DCP
INDEX 01 16:14:26
TRACK 07 AUDIO
TITLE "远い少女へ"
PERFORMER "tieLeaf"
FLAGS DCP
INDEX 01 18:26:38
TRACK 08 AUDIO
TITLE "花ひらく苍天"
PERFORMER "tieLeaf"
FLAGS DCP
INDEX 01 23:19:23
TRACK 09 AUDIO
TITLE "白き想歌"
PERFORMER "tieLeaf"
FLAGS DCP
INDEX 01 28:21:35
TRACK 10 AUDIO
TITLE "捻子巻く时计が月の満ち欠けを刻む"
PERFORMER "tieLeaf"
FLAGS DCP
INDEX 01 32:22:49
TRACK 11 AUDIO
TITLE "闭じられた世界"
PERFORMER "tieLeaf"
FLAGS DCP
INDEX 01 36:17:66